Film .mp4 hd in libreria


Recommended Posts

ecco i dati del filmato

General

Complete name : The Mummy-Tomb Of The Dragon Emperor.mp4

Format : MPEG-4

Format profile : Base Media

Codec ID : isom

File size : 1.42 GiB

Duration : 1h 51mn

Overall bit rate : 1 815 Kbps

Encoded date : UTC 2009-09-21 13:43:37

Tagged date : UTC 2009-09-21 13:43:37

Video

ID : 1

Format : AVC

Format/Info : Advanced Video Codec

Format profile : [email protected]

Format settings, CABAC : Yes

Format settings, ReFrames : 3 frames

Codec ID : avc1

Codec ID/Info : Advanced Video Coding

Duration : 1h 51mn

Bit rate mode : Variable

Bit rate : 1 620 Kbps

Maximum bit rate : 5 979 Kbps

Width : 1 280 pixels

Height : 528 pixels

Display aspect ratio : 2.40:1

Frame rate mode : Constant

Frame rate : 23.976 fps

Resolution : 24 bits

Colorimetry : 4:2:0

Scan type : Progressive

Bits/(Pixel*Frame) : 0.100

Stream size : 1.26 GiB (89%)

Title : The Mummy-Tomb Of The Dragon Emperor By 3Li

Writing library : x264 core 68

Audio

ID : 2

Format : AAC

Format/Info : Advanced Audio Codec

Format version : Version 4

Format profile : LC

Format settings, SBR : No

Codec ID : 40

Duration : 1h 51mn

Bit rate mode : Variable

Bit rate : 192 Kbps

Maximum bit rate : 208 Kbps

Channel(s) : 6 channels

Channel positions : Front: L C R, Rear: L R, LFE

Sampling rate : 48.0 KHz

Resolution : 16 bits

Stream size : 153 MiB (11%)

Title : The Mummy-Tomb Of The Dragon Emperor

Language : English

Encoded date : UTC 2009-09-21 13:44:23

Tagged date : UTC 2009-09-21 13:44:29

Link to post
Share on other sites

Create an account or sign in to comment

You need to be a member in order to leave a comment

Create an account

Sign up for a new account in our community. It's easy!

Register a new account

Sign in

Already have an account? Sign in here.

Sign In Now